1. Hi Guest, Warez-Home needs dedicated uploaders, For more Information read Here.

  2. Attention Guests! Please Register or Login to have access to our community freely!

Children of Bodom - Halo of Blood (Limited Edition) (2013) .Flac

Discussion in 'English Songs' started by rapidols, Jun 7, 2013.

  1. rapidols
    Offline

    rapidols Super Elite WH Super Elite

    Messages:
    2,723
    Likes Received:
    4
    Trophy Points:
    83
    [​IMG]

    [​IMG]

    Artist...............: Children of Bodom
    Title Of Album................: Halo of Blood
    Genre................: Power Metal
    Year.................: 2013
    Size...................: 415 MB
    Codec................: FLAC image+.cue
    Posted by............: Rapidols 2013

    [​IMG]

    01. Waste of Skin 04:17
    02. Halo of Blood 03:13
    03. Scream for Silence 04:10
    04. Transference 03:58
    05. Bodom Blue Moon (The Second Coming) 04:14
    06. The Days Are Numbered 03:41
    07. Dead Man’s Hand on You 04:58
    08. Damage Beyond Repair 04:21
    09. All Twisted 04:52
    10. One Bottle and a Knee Deep 04:02
    11. Sleeping In My Car (Bonus Track) 03:19

    .Log
    Exact Audio Copy V0.99 prebeta 5 from 4. May 2009

    EAC extraction logfile from 7. June 2013, 1:31

    Children Of Bodom / Halo Of Blood

    Used drive : ATAPI iHAP122 9 Adapter: 3 ID: 0

    Read mode : Secure
    Utilize accurate stream : Yes
    Defeat audio cache : Yes
    Make use of C2 pointers : No

    Read offset correction : 6
    Overread into Lead-In and Lead-Out : No
    Fill up missing offset samples with silence : Yes
    Delete leading and trailing silent blocks : No
    Null samples used in CRC calculations : Yes
    Used interface : Installed external ASPI interface

    Used output format : User Defined Encoder
    Selected bitrate : 40 kBit/s
    Quality : High
    Add ID3 tag : No
    Command line compressor : C:\Program Files\Exact Audio Copy\Flac\flac.exe
    Additional command line options : -6 -V %s

    TOC of the extracted CD

    Track | Start | Length | Start sector | End sector
    ---------------------------------------------------------
    1 | 0:00.00 | 4:16.36 | 0 | 19235
    2 | 4:16.36 | 3:12.34 | 19236 | 33669
    3 | 7:28.70 | 4:09.39 | 33670 | 52383
    4 | 11:38.34 | 3:58.20 | 52384 | 70253
    5 | 15:36.54 | 4:14.14 | 70254 | 89317
    6 | 19:50.68 | 3:40.48 | 89318 | 105865
    7 | 23:31.41 | 4:57.42 | 105866 | 128182
    8 | 28:29.08 | 4:20.44 | 128183 | 147726
    9 | 32:49.52 | 4:51.72 | 147727 | 169623
    10 | 37:41.49 | 4:04.50 | 169624 | 187973
    11 | 41:46.24 | 3:19.13 | 187974 | 202911

    Range status and errors

    Selected range

    Filename D:\Download\Children Of Bodom - Halo Of Blood.wav

    Peak level 100.0 %
    Range quality 100.0 %
    Copy CRC 8F0B626C
    Copy OK

    No errors occurred

    AccurateRip summary

    Track 1 not present in database
    Track 2 not present in database
    Track 3 not present in database
    Track 4 not present in database
    Track 5 not present in database
    Track 6 not present in database
    Track 7 not present in database
    Track 8 not present in database
    Track 9 not present in database
    Track 10 not present in database
    Track 11 not present in database

    None of the tracks are present in the AccurateRip database

    End of status report

    .Cue
    REM GENRE "Melodic Death Metal"
    REM DATE 2013
    REM DISCID 830A910B
    REM COMMENT "ExactAudioCopy v0.99pb5"
    PERFORMER "Children Of Bodom"
    TITLE "Halo Of Blood"
    FILE "Children Of Bodom - Halo Of Blood.flac" WAVE
    TRACK 01 AUDIO
    TITLE "Waste Of Skin"
    PERFORMER "Children Of Bodom"
    INDEX 01 00:00:00
    TRACK 02 AUDIO
    TITLE "Halo Of Blood"
    PERFORMER "Children Of Bodom"
    INDEX 01 04:16:36
    TRACK 03 AUDIO
    TITLE "Scream For Silence"
    PERFORMER "Children Of Bodom"
    INDEX 01 07:28:70
    TRACK 04 AUDIO
    TITLE "Transference"
    PERFORMER "Children Of Bodom"
    INDEX 01 11:38:34
    TRACK 05 AUDIO
    TITLE "Bodom Blue Moon (The Second Coming)"
    PERFORMER "Children Of Bodom"
    INDEX 01 15:36:54
    TRACK 06 AUDIO
    TITLE "Your Days Are Numbered"
    PERFORMER "Children Of Bodom"
    INDEX 01 19:50:68
    TRACK 07 AUDIO
    TITLE "Dead Man's Hand On You"
    PERFORMER "Children Of Bodom"
    INDEX 01 23:31:41
    TRACK 08 AUDIO
    TITLE "Damaged Beyond Repair"
    PERFORMER "Children Of Bodom"
    INDEX 01 28:29:08
    TRACK 09 AUDIO
    TITLE "All Twisted"
    PERFORMER "Children Of Bodom"
    INDEX 01 32:49:52
    TRACK 10 AUDIO
    TITLE "One Bottle And A Knee Deep"
    PERFORMER "Children Of Bodom"
    INDEX 01 37:41:49
    TRACK 11 AUDIO
    TITLE "Sleeping In My Car"
    PERFORMER "Children Of Bodom"
    INDEX 01 41:46:24

    [​IMG]

    [​IMG] [​IMG] [​IMG] [​IMG]
    Code:
    http://ul.to/ikrj3me2
    http://ul.to/l5zj3dm1
    http://ul.to/9wa8x8b8
    
    http://rapidgator.net/file/95dced7a27d6bc5cc6075f3af2d9513f/Children_of_Bodom_-_Halo_of_Blood_(Limited_Edition)(2013)_FLAC.part3.rar.html
    http://rapidgator.net/file/bf91b32ec2166a7c3177ff5c92ce2563/Children_of_Bodom_-_Halo_of_Blood_(Limited_Edition)(2013)_FLAC.part2.rar.html
    http://rapidgator.net/file/294c83c7271e6a3fbba712ef8db02b01/Children_of_Bodom_-_Halo_of_Blood_(Limited_Edition)(2013)_FLAC.part1.rar.html
    
    http://www.ddlstorage.com/mflzfon4p9y2/Children_of_Bodom_-_Halo_of_Blood__Limited_Edition__2013__FLAC.part2.rar.htm
    http://www.ddlstorage.com/k0n0q9gzwund/Children_of_Bodom_-_Halo_of_Blood__Limited_Edition__2013__FLAC.part3.rar.htm
    http://www.ddlstorage.com/ajgwo0snvs72/Children_of_Bodom_-_Halo_of_Blood__Limited_Edition__2013__FLAC.part1.rar.htm
    
    http://www.tusfiles.net/15i6q9p4k83f
    http://www.tusfiles.net/ovbx7dclfuh3
    http://www.tusfiles.net/zpu8h662dkg4

Share This Page